소프트웨어 동영상플레이어 설치및사용과 점유율측정

2019.08.24 00:52

굿듀님스토커 조회:809 추천:7

테스트에 사용된 동영상 플레이어(x64용으로 측정)

 

1.다음팟플레이어

2.곰플레이어

3.km플레이어

4.vlc플레이어

5.1그램플레이어

6.윈도우용(영화및tv플레이어)

7.gorn플레이어

 

여기에서 사용된 영상은 제목은 제외하겠습니다. ㅋ

 

컴퓨터 사양

 

amd x6 투반 1055t  2.80GHz

램 16기가

삼성 ssd 256

윈도우 x64 프로

 

 

동영상정보

General
Format                         : Matroska
Format version                 : Version 4
File size                      : 93.6 MiB
Duration                       : 1 min 0 s
Overall bit rate               : 13.1 Mb/s
Encoded date                   : UTC 2019-08-23 00:36:00
Writing application            : mkvmerge v35.0.0 (master: 2421163 / deflate: e647e65) [X86_64]
Writing library                : libebml v1.3.9 + libmatroska v1.5.2

Video
ID                             : 1
Format                         : HEVC
Format/Info                    : High Efficiency Video Coding
Format profile                 : Main 10@L5@High
HDR format                     : SMPTE ST 2086, HDR10 compatible
Codec ID                       : V_MPEGH/ISO/HEVC
Duration                       : 1 min 0 s
Bit rate                       : 12.4 Mb/s
Width                          : 3 840 pixels
Height                         : 1 600 pixels
Original height                : 2 160 pixels
Display aspect ratio           : 16:9
Frame rate mode                : Constant
Frame rate                     : 23.976 (23976/1000) FPS
Color space                    : YUV
Chroma subsampling             : 4:2:0 (Type 2)
Bit depth                      : 10 bits
Bits/(Pixel*Frame)             : 0.084
Stream size                    : 88.6 MiB (95%)
Writing library                : x265 3.0:[Linux][GCC 4.8.3][64 bit] 10bit
Language                       : English
Default                        : Yes
Forced                         : No
Color range                    : Limited
Color primaries                : BT.2020
Transfer characteristics       : PQ
Matrix coefficients            : BT.2020 non-constant
Mastering display color primar : Display P3
Mastering display luminance    : min: 0.0050 cd/m2, max: 4000 cd/m2

Audio
ID                             : 2
Format                         : E-AC-3 JOC
Format/Info                    : Enhanced AC-3 with Joint Object Coding
Commercial name                : Dolby Digital Plus with Dolby Atmos
Codec ID                       : A_EAC3
Duration                       : 1 min 0 s
Bit rate mode                  : Constant
Bit rate                       : 448 kb/s
Channel(s)                     : 6 channels
Channel layout                 : L R C LFE Ls Rs
Sampling rate                  : 48.0 kHz
Frame rate                     : 31.250 FPS (1536 SPF)
Compression mode               : Lossy
Delay relative to video        : 20 ms
Stream size                    : 3.21 MiB (3%)
Language                       : English
Service kind                   : Complete Main
Default                        : Yes
Forced                         : No
Complexity index               : 16
Number of dynamic objects      : 15
Bed channel count              : 1 channel
Bed channel configuration      : LFE

 

동영상재생 (샘플로 측정/전체화면으로 측정/외부코덱없이 재생)

 

1.다음팟플레이어

메모리:753.4m

cpu:최고96%

 

2.곰플레이어

메모리:760.4m

cpu:최고86%

 

3.km플레이어

메모리:560.4m

cpu:최고86%

 

4.vlc플레이어

메모리:840.4m

cpu:최고93%

 

5.1그램플레이어

메모리:675.4m

cpu:최고90%

 

6.윈도우용(영화및tv플레이어)

메모리:55.4m

cpu:최고88%

재생이 안됨

영상만 재생이 되면 점유율이 적어서 좋을거 같은데 재생이 안되네요

코덱도 깔아서 돌렸는데 이상하게 재생이 안됨

 

7.gorn플레이어

메모리:692.4m

cpu:최고92%

 

8.mpc-be플레이어

메모리:505m

cpu:91%

외부코덱없이 재생불가능

외부코덱필수

k-lite코덱 설치필요

 

 

유튜브영상주소:https://www.youtube.com/watch?v=gDooezMtzhw

영상: 3840x2160 소리: 160 kb/s (2160p60) .webm - 최고 화질

기본:

 

1.다음팟플레이어

2.곰플레이어

3.km플레이어

4.vlc플레이어

5.1그램플레이어

6.윈도우용(영화및tv플레이어)

7.gorn플레이어

 

총 7가지 동영상플레어로 테스트

 

아무것도 안건드린상태에서 유튜브재생시

다음팟

곰플레이어

vlc플레이어

1gram플레이어

이 4가지만 돌아감

나머지 영상및 tv는 안돌아가고

 

km플레이어나 mpc와 corn은 따로 세팅을 해줘야 돌아갑니다.

 

유튜브영상플레이어로는 (기본화질 / 전체화면 측정)

 

1.다음팟플레이어

메모리:55.4m

cpu:최고6%

다양상화질로 제공합니다. 화질을 선택할수있다라는장점

유튜브 다운로드 지원안됨

 

2.1그램

1그램은 무조건 최고화질로 재생

메모리:304M

cpu:83.8%

화질은 다음팟다음으로 좋은데 화질을 원하는 화질로 변경이 안되는 단점이있음

장점:유튜브영상을 다운로드를 지원하고 검색까지 가능 / 네이버영상도 볼수있음 다운로드는안됨

 

 

 

3.곰플레이어

메모리:114.2m

cpu:최고 8.3%

화질이 안좋음 화질변경안됨

유튜브 다운로드 지원안됨

 

4.vlc

메모리:86.4m

cpu:최고 8.1%

보통화질

다만 이것도 화질을 변경이 안되는 단점이 있음

유튜브 다운로드 지원안됨

 

5.gorn플레이어

[현재 유튜브재생안됨]

유튜브다운로드및검색지원

유튜브영상재생시 오류가 발생합니다.

이건 제작자가 유튜브에서 비디오토큰관련하여 고쳐야하는데 언제 고칠지모르곘네요

그거 수정하면 유튜브영상도 볼수있을거 같습니다.

 

다만 유튜브영상플레이는 세팅해야한다는 단점이 있음

 

유일하게 다운로드 지원되는 프로그램은 "1그램플레이어"과"gorn플레이어"

 

1그램플레이어가 유튜브영상 다운하는데에 제일로 편합니다.

 

동영상 플레이어로는 다음팟이 제일좋은거 같은데(제컴으로했을경우) 광고 때문에 ㅜㅡㅜ

 

유튜브감상과 동영상플레이어로 최적인거는 다음팟이고

 

유튜브다운로드전용은 1그램플레이어가 좋은거 같습니다.

 

윈도우자체적으로 있는 영화및tv???? 플레이어가 점유율이 제일 작은데 샘플로 재생한 영상은 재생이 안되고

 

일반적인 영상은 재생이 됩니다.

 

다만 자막이 srt라 smi로 변환하면 되니 일반적인 영상을 보실경우에는 자체플레이어로 보시면 됩니다.

 

뭐 선택은 회원분들이 하시는것이니 이건 참고만 하세요

 

 

 

 

 

 

 

 

'=================================================== 동영상 플레이어 재측정 ========================================================

영상정보

 

General
Unique ID                      :
Format                         : Matroska
Format version                 : Version 4
File size                      : 8.46 GiB
Duration                       : 2 h 10 min
Overall bit rate               : 9 259 kb/s
Movie name                     :
Encoded date                   : UTC 2019-08-23 07:46:37
Writing application            : mkvmerge v35.0.0 ('All The Love In The World') 64-bit
Writing library                : libebml v1.3.9 + libmatroska v1.5.2
Cover                          : Yes
Attachments                    : cover_land.jpg / small_cover.jpg / small_cover_land.jpg / cover.jpg

Video
ID                             : 1
Format                         : AVC
Format/Info                    : Advanced Video Codec
Format profile                 : High@L4
Format settings                : CABAC / 4 Ref Frames
Format settings, CABAC         : Yes
Format settings, Reference fra : 4 frames
Codec ID                       : V_MPEG4/ISO/AVC
Duration                       : 2 h 10 min
Bit rate mode                  : Constant
Bit rate                       : 8 809 kb/s
Nominal bit rate               : 10 000 kb/s
Width                          : 1 920 pixels
Height                         : 800 pixels
Display aspect ratio           : 2.40:1
Frame rate mode                : Constant
Frame rate                     : 23.976 (24000/1001) FPS
Color space                    : YUV
Chroma subsampling             : 4:2:0
Bit depth                      : 8 bits
Scan type                      : Progressive
Bits/(Pixel*Frame)             : 0.239
Stream size                    : 8.05 GiB (95%)
Title                          :
Language                       : English
Default                        : Yes
Forced                         : No
Color range                    : Limited
Color primaries                : BT.709
Transfer characteristics       : BT.709
Matrix coefficients            : BT.709

Audio
ID                             : 2
Format                         : E-AC-3 JOC
Format/Info                    : Enhanced AC-3 with Joint Object Coding
Commercial name                : Dolby Digital Plus with Dolby Atmos
Codec ID                       : A_EAC3
Duration                       : 2 h 10 min
Bit rate mode                  : Constant
Bit rate                       : 448 kb/s
Channel(s)                     : 6 channels
Channel layout                 : L R C LFE Ls Rs
Sampling rate                  : 48.0 kHz
Frame rate                     : 31.250 FPS (1536 SPF)
Compression mode               : Lossy
Stream size                    : 419 MiB (5%)
Title                          :
Language                       : English
Service kind                   : Complete Main
Default                        : Yes
Forced                         : No
Complexity index               : 16
Number of dynamic objects      : 15
Bed channel count              : 1 channel
Bed channel configuration      : LFE

Text #1
ID                             : 3
Format                         : UTF-8
Codec ID                       : S_TEXT/UTF8
Codec ID/Info                  : UTF-8 Plain Text
Duration                       : 1 h 59 min
Bit rate                       : 24 b/s
Count of elements              : 764
Stream size                    : 21.7 KiB (0%)
Language                       : English
Default                        : No
Forced                         : No

Text #2
 

 

 

1.다음팟플레이어

 

메모리:228.2m

cpu:최고2 8.3%

 

2.곰플레이어

메모리:178.2m

cpu:최고23.3%

 

3.km플레이어

메모리:110.m

cpu:최고15.3%

 

 

 

4.vlc플레이어

메모리:115.2m

cpu:최고11%

 

5.1그램플레이어

메모리:165.2m

cpu:최고31.3%

 

 

6.윈도우용(영화및tv플레이어)

메모리:108.2m

(평균적으로 60m먹음  화면이 화려하거나 밝을때 잠깐 최고로 올라감)

cpu:최고7.3%

 

7.gorn플레이어

메모리:125.2m

cpu:최고22%

 

 

영상을 일반적인 1080영상으로 측정한 자료입니다.

 

화질적인 면에서는

 

최하:km플레이어

화면이 밝음

명암구분이 없다???

뭔가 영상이 지저분하다고 해야하나

비추천함

 

윈도우자체 플레이어(메모리나 cpu점유율이 낮아서 좋으나 화질이 떨어지는 영상은 좋아보이지않음

영상프레임이 상당이 높아야 좋을거 같음

영상화질을 조정할수가 없다보니 야동아니면 사용할 필요가 없을거 같음

ㅋㅋ 야동은 그냥 막보면 되니깐요 ㅋ

 

 

최고플레이어:곰플레이어와 다음팟플레이어

 

평균플레이어 :그외플레이

 

어차피 영화를 매일보는것도 아니고 가끔씩 보는 제 입장에서는 다음팟플레이어가 제일 좋은거 같음

 

코덱도 포함되어서 좋고 외부코텍을 깔필요가 없다보니 광고빼고는 전체적으로 좋음

 

다만 곰플레이어같은 경우는 설치시 잘못하면 같이 설치되는 프로그램이 있다보니

 

화질조정도 편하고 메모리나 cpu나 잠깐 보는것이니 ㅋㅋ

 

영화를 위해서 다음팟이 좋은거 같음 유튜브지원도 되고 전체적으로 다음팟이 좋고 그다음이 곰플레이어

 

나머지는 회원님들이 선택하시기 바랍니다.

 

 

 

 

 

 

설치만하고 프로그램만 실행해 놓은 상태인데 1그램플레이어가 제일 많이 메모리를 잡아먹네요 뭐때문에 그런건지 모르겠지만요

참고로 어느 프로그램인지 확인이 안되는데 프로그램종료시 광고를 띄웁니다.

 

곰플레이어와다음팟플레이어는 아닌데 그외 프로그램중에 하나가 프로그램종료시 광고를 띄움

 

 

 

지금 1그랩을 깔고서 어느정도 유튜브영상을 보고 종료를 하니 광고창이 뜨네요

알고보니 저게 프로세스에서 자동으로 돌고 있는거 같습니다.

저 부분이 광고를 띄우는 프로세스파일입니다.

 

1gramt.exe 이파일이 광고를 띄우는 파일이고 저게 조건이 되면 자동으로 광고를 띄우도록 하는 것 같습니다.

참고하세요!

 

 

 

번호 제목 글쓴이 조회 추천 날짜
[공지] 사용기/설치기 이용안내 gooddew - - -
6519 기 타| 집앞의큰**님 OKR로 복원시 볼륨명을 유지하도록 하여 보... [7] 왕초보 284 2 08-28
6518 기 타| 런처창크기 줄여보기 [21] 집앞의_큰 485 21 08-28
6517 기 타| SHIELD님 K*m님 런처 활용 - 고수님을 따라하여 보았습니... [7] 왕초보 422 9 08-27
6516 윈 도 우| SHIELD님 자료로 새롭게 단장 (창크기 반영) [232] 집앞의_큰 1423 91 08-27
6515 기 타| SHIELD님 K*m님 런처 활용 - 상대경로 관련입니다 [4] 왕초보 243 7 08-27
6514 기 타| SHIELD님 K*m님 런처 활용 - 중복dll문제 해결방법 입니다 [5] 왕초보 241 7 08-27
6513 기 타| 집앞의큰**님 OKR로 공장용 백업파일 만들기입니다.. [8] 왕초보 586 8 08-26
6512 기 타| K*m님 런처 활용 [내용추가 및 수정 그리고 중복파일 수정] [25] SHIELD 734 17 08-26
6511 기 타| [종료]JU-MTUIChum18362.10015-AS_버전2가지 [651] 첨임다 1696 177 08-26
6510 기 타| 집앞의큰**님 OKR을 cmd 1개(?)로 하여 보았습니다.. [5] 왕초보 425 6 08-26
6509 기 타| 런처의 새론 발견 [21] 집앞의_큰 1029 20 08-25
6508 기 타| 7행 4줄 정도 [33] 집앞의_큰 759 32 08-25
6507 기 타| 집앞의큰**님 OKR 버전을 활용하여 보았습니다.. [2] 왕초보 513 5 08-25
6506 기 타| [종료]KJ-ChumPe18362.10015 [521] 첨임다 1710 156 08-25
6505 소프트웨어| RSImageX2.67.exe 나왔네요 [설치 테스트] [17] suk 1797 22 08-24
» 소프트웨어| 동영상플레이어 설치및사용과 점유율측정 [9] 굿듀님스토 809 7 08-24
6503 소프트웨어| 브라우저 메모리사용량과CPU사용량 [9] 굿듀님스토 607 6 08-23
6502 기 타| (SUK)님의 배치파일 활용 [47] 집앞의_큰 1009 48 08-23
6501 기 타| [종료]JU-MTUIChum18362.10015 [681] 첨임다 2281 194 08-23
6500 윈 도 우| Windows10_v1930_18362_325_x64_winboot (2019.8.25일).wim [138] V무등산V 2300 66 08-22
XE1.8.27 Layout1.4.8